Евгений Гришковец: Шёпот сердца (Павел Судаков) [2017, Россия, Моноспектакль, DVD5]

 
 Статистика раздачи 
Размер: 4.19 ГБ   |  Зарегистрирован: 21 май 2018, 18:24   |   .torrent скачан: 0 раз
Сидеров: 1  [ 0 байт/сек ]     Личеров: 0  [ 0 байт/сек ]  
  

Евгений Гришковец: Шёпот сердца (Павел Судаков) [2017, Россия, Моноспектакль, DVD5]

Сообщение Nakazhu » 21 май 2018, 18:24

Евгений Гришковец: Шёпот сердца
Страна: Россия
Жанр: Моноспектакль
Год выпуска: 2017
Продолжительность: 02:07:50
Перевод: Не требуется
Оригинальная аудиодорожка: русский
Режиссёр: Павел Судаков
В ролях: Евгений Гришковец
Описание: Евгений Гришковец, который «переменил представления о жанре моноспектакля и даже сам стал определенным «жанром»», называет «Шёпот сердца» своей самой необычной и самой сокровенной работой.
«Это мой шестой монолог за семнадцать лет работы, над замыслом которого я думал больше пяти лет, а он мне никак не давался. Три с лишним года назад я даже подумывал отказаться от него и сделал «Прощание с бумагой». Однако, снова и снова я возвращался к «Шёпоту сердца»… Это было время крайне тщательного и неспешного подбора слов и смыслов».
Качество видео: DVD5
Формат видео: DVD Video
Видео: MPEG2 Video, 720x576 (16:9), 25 fps, ~4156 Kbps
Аудио: русский, АС-3, 48 кГц, 16 бит, 192 kbps, 2 канала
General
Complete name : D:\Uploads\Евгений Гришковец. Щепот сердца. Моноспектакль (2017)\VIDEO_TS\VIDEO_TS.BUP
Format : DVD Video
Format profile : Menu
File size : 8.00 KiB
Video
ID : 0xE0
Format : MPEG Video
Format version : Version 1
Bit rate mode : Variable
Width : 720 pixels
Height : 480 pixels
Display aspect ratio : 4:3
Frame rate : 29.970 fps
Standard : NTSC
General
Complete name : D:\Uploads\Евгений Гришковец. Щепот сердца. Моноспектакль (2017)\VIDEO_TS\VIDEO_TS.IFO
Format : DVD Video
Format profile : Menu
File size : 8.00 KiB
Video
ID : 0xE0
Format : MPEG Video
Format version : Version 1
Bit rate mode : Variable
Width : 720 pixels
Height : 480 pixels
Display aspect ratio : 4:3
Frame rate : 29.970 fps
Standard : NTSC
General
Complete name : D:\Uploads\Евгений Гришковец. Щепот сердца. Моноспектакль (2017)\VIDEO_TS\VTS_01_0.BUP
Format : DVD Video
Format profile : Program
File size : 74.0 KiB
Video
ID : 0xE0
Format : MPEG Video
Format version : Version 2
Bit rate mode : Variable
Width : 720 pixels
Height : 576 pixels
Display aspect ratio : 16:9
Frame rate : 25.000 fps
Standard : PAL
Audio
ID : 0x80
Format : AC-3
Format/Info : Audio Coding 3
Channel(s) : 2 channels
Sampling rate : 48.0 KHz
Language : Russian
Menu #1
List (Audio) : 0
Menu #2
List (Audio) : 0
Menu #3
General
Complete name : D:\Uploads\Евгений Гришковец. Щепот сердца. Моноспектакль (2017)\VIDEO_TS\VTS_01_0.IFO
Format : DVD Video
Format profile : Program
File size : 74.0 KiB
Video
ID : 0xE0
Format : MPEG Video
Format version : Version 2
Bit rate mode : Variable
Width : 720 pixels
Height : 576 pixels
Display aspect ratio : 16:9
Frame rate : 25.000 fps
Standard : PAL
Audio
ID : 0x80
Format : AC-3
Format/Info : Audio Coding 3
Channel(s) : 2 channels
Sampling rate : 48.0 KHz
Language : Russian
Menu #1
List (Audio) : 0
Menu #2
List (Audio) : 0
Menu #3
General
Complete name : D:\Uploads\Евгений Гришковец. Щепот сердца. Моноспектакль (2017)\VIDEO_TS\VTS_01_0.VOB
Format : MPEG-PS
File size : 108 KiB
Duration : 40ms
Overall bit rate : 22.1 Mbps
Video
ID : 224 (0xE0)
Format : MPEG Video
Format version : Version 2
Format profile : [email protected]
Format settings, BVOP : No
Format settings, Matrix : Default
Duration : 40ms
Bit rate mode : Constant
Bit rate : 8 000 Kbps
Width : 720 pixels
Height : 576 pixels
Display aspect ratio : 16:9
Frame rate : 25.000 fps
Standard : PAL
Resolution : 8 bits
Colorimetry : 4:2:0
Scan type : Progressive
Scan order : Top Field First
Bits/(Pixel*Frame) : 0.772
Stream size : 39.1 KiB (36%)
Text #1
ID : 32 (0x20)
Format : RLE
Format/Info : Run-length encoding
Text #2
ID : 33 (0x21)
Format : RLE
Format/Info : Run-length encoding
Menu
General
Complete name : D:\Uploads\Евгений Гришковец. Щепот сердца. Моноспектакль (2017)\VIDEO_TS\VTS_01_1.VOB
Format : MPEG-PS
File size : 1 024 MiB
Duration : 31mn 36s
Overall bit rate : 4 528 Kbps
Video
ID : 224 (0xE0)
Format : MPEG Video
Format version : Version 2
Format profile : [email protected]
Format settings, BVOP : Yes
Format settings, Matrix : Default
Duration : 31mn 36s
Bit rate mode : Variable
Bit rate : 4 156 Kbps
Nominal bit rate : 7 000 Kbps
Width : 720 pixels
Height : 576 pixels
Display aspect ratio : 16:9
Frame rate : 25.000 fps
Standard : PAL
Resolution : 8 bits
Colorimetry : 4:2:0
Scan type : Progressive
Bits/(Pixel*Frame) : 0.401
Stream size : 940 MiB (92%)
Audio
ID : 128 (0x80)
Format : AC-3
Format/Info : Audio Coding 3
Duration : 31mn 36s
Bit rate mode : Constant
Bit rate : 192 Kbps
Channel(s) : 2 channels
Channel positions : L R
Sampling rate : 48.0 KHz
Video delay : -339ms
Stream size : 43.4 MiB (4%)
Menu
General
Complete name : D:\Uploads\Евгений Гришковец. Щепот сердца. Моноспектакль (2017)\VIDEO_TS\VTS_01_2.VOB
Format : MPEG-PS
File size : 1 024 MiB
Duration : 28mn 38s
Overall bit rate : 4 996 Kbps
Video
ID : 224 (0xE0)
Format : MPEG Video
Format version : Version 2
Format profile : [email protected]
Format settings, BVOP : Yes
Format settings, Matrix : Default
Duration : 28mn 38s
Bit rate mode : Variable
Bit rate : 4 606 Kbps
Nominal bit rate : 8 500 Kbps
Width : 720 pixels
Height : 576 pixels
Display aspect ratio : 16:9
Frame rate : 25.000 fps
Standard : PAL
Resolution : 8 bits
Colorimetry : 4:2:0
Scan type : Progressive
Bits/(Pixel*Frame) : 0.444
Stream size : 944 MiB (92%)
Audio
ID : 128 (0x80)
Format : AC-3
Format/Info : Audio Coding 3
Duration : 28mn 38s
Bit rate mode : Constant
Bit rate : 192 Kbps
Channel(s) : 2 channels
Channel positions : L R
Sampling rate : 48.0 KHz
Video delay : -104ms
Stream size : 39.3 MiB (4%)
Menu
General
Complete name : D:\Uploads\Евгений Гришковец. Щепот сердца. Моноспектакль (2017)\VIDEO_TS\VTS_01_3.VOB
Format : MPEG-PS
File size : 1 024 MiB
Duration : 29mn 11s
Overall bit rate : 4 904 Kbps
Video
ID : 224 (0xE0)
Format : MPEG Video
Format version : Version 2
Format profile : [email protected]
Format settings, BVOP : Yes
Format settings, Matrix : Default
Duration : 29mn 11s
Bit rate mode : Variable
Bit rate : 4 518 Kbps
Nominal bit rate : 8 500 Kbps
Width : 720 pixels
Height : 576 pixels
Display aspect ratio : 16:9
Frame rate : 25.000 fps
Standard : PAL
Resolution : 8 bits
Colorimetry : 4:2:0
Scan type : Progressive
Bits/(Pixel*Frame) : 0.436
Stream size : 943 MiB (92%)
Audio
ID : 128 (0x80)
Format : AC-3
Format/Info : Audio Coding 3
Duration : 29mn 11s
Bit rate mode : Constant
Bit rate : 192 Kbps
Channel(s) : 2 channels
Channel positions : L R
Sampling rate : 48.0 KHz
Video delay : -240ms
Stream size : 40.1 MiB (4%)
Menu
General
Complete name : D:\Uploads\Евгений Гришковец. Щепот сердца. Моноспектакль (2017)\VIDEO_TS\VTS_01_4.VOB
Format : MPEG-PS
File size : 1 024 MiB
Duration : 34mn 57s
Overall bit rate : 4 095 Kbps
Video
ID : 224 (0xE0)
Format : MPEG Video
Format version : Version 2
Format profile : [email protected]
Format settings, BVOP : Yes
Format settings, Matrix : Default
Duration : 34mn 57s
Bit rate mode : Variable
Bit rate : 3 741 Kbps
Nominal bit rate : 8 500 Kbps
Width : 720 pixels
Height : 576 pixels
Display aspect ratio : 16:9
Frame rate : 25.000 fps
Standard : PAL
Resolution : 8 bits
Colorimetry : 4:2:0
Scan type : Progressive
Bits/(Pixel*Frame) : 0.361
Stream size : 935 MiB (91%)
Audio
ID : 128 (0x80)
Format : AC-3
Format/Info : Audio Coding 3
Duration : 34mn 57s
Bit rate mode : Constant
Bit rate : 192 Kbps
Channel(s) : 2 channels
Channel positions : L R
Sampling rate : 48.0 KHz
Video delay : -192ms
Stream size : 48.0 MiB (5%)
Menu
General
Complete name : D:\Uploads\Евгений Гришковец. Щепот сердца. Моноспектакль (2017)\VIDEO_TS\VTS_01_5.VOB
Format : MPEG-PS
File size : 104 MiB
Duration : 3mn 26s
Overall bit rate : 4 214 Kbps
Video
ID : 224 (0xE0)
Format : MPEG Video
Format version : Version 2
Format profile : [email protected]
Format settings, BVOP : Yes
Format settings, Matrix : Default
Duration : 3mn 26s
Bit rate mode : Variable
Bit rate : 3 855 Kbps
Nominal bit rate : 8 500 Kbps
Width : 720 pixels
Height : 576 pixels
Display aspect ratio : 16:9
Frame rate : 25.000 fps
Standard : PAL
Resolution : 8 bits
Colorimetry : 4:2:0
Scan type : Progressive
Bits/(Pixel*Frame) : 0.372
Stream size : 94.7 MiB (91%)
Audio
ID : 128 (0x80)
Format : AC-3
Format/Info : Audio Coding 3
Duration : 3mn 26s
Bit rate mode : Constant
Bit rate : 192 Kbps
Channel(s) : 2 channels
Channel positions : L R
Sampling rate : 48.0 KHz
Video delay : -216ms
Stream size : 4.72 MiB (5%)
Menu

 
Не забывайте говорить Спасибо. Не уходите с раздачи!   
Торрент: Зарегистрирован [21 май 2018, 18:24] Для скачивания .torrent
необходима регистрация
Или скачать с помощью
MediaGet
Статус:
Проверен
 
.torrent скачан: 0 раз
Хэш: bbce3944ed0e75b6e3edf88123b9c031271cd1de
Размер: 4.19 ГБ (4 499 286 755 байт)
Стать Автором раздачи
 
 
Раздал: 0 байт
Скачал: 0 байт
Ратио: Inf.
Сообщения: 470629
Зарегистрирован: 17 апр 2014, 13:57


Вернуться в Театр

Кто сейчас на конференции

Сейчас эту тему просматривают: нет зарегистрированных пользователей и гости: 1

Ресурс не предоставляет электронные версии произведений, а занимается лишь коллекционированием и каталогизацией ссылок, присылаемых и публикуемых на форуме нашими читателями. Если вы являетесь правообладателем какого-либо представленного материала и не желаете чтобы ссылка на него находилась в нашем каталоге, свяжитесь с нами и мы незамедлительно удалим её. Файлы для обмена на трекере предоставлены пользователями сайта, и администрация не несёт ответственности за их содержание. Просьба не заливать файлы, защищенные авторскими правами, а также файлы нелегального содержания!
cron