Кабинет доктора Калигари / Das Cabinet des Dr. Caligari (Роберт Вине / Robert Wiene) [1920, Германия, детектив, ужасы, BDRip-AVC] AVO (Сербин) + Original + Sub Rus

 
 Статистика раздачи 
Размер: 1.46 ГБ   |  Зарегистрирован: 16 май 2018, 18:02   |   .torrent скачан: 0 раз
Сидеров: 1  [ 0 байт/сек ]     Личеров: 0  [ 0 байт/сек ]  
  

Кабинет доктора Калигари / Das Cabinet des Dr. Caligari (Роберт Вине / Robert Wiene) [1920, Германия, детектив, ужасы, BDRip-AVC] AVO (Сербин) + Original + Sub Rus

Сообщение Nakazhu » 16 май 2018, 18:02

Кабинет доктора КалигариDas Cabinet des Dr. Caligari
Год выпуска: 1920
Страна: Германия
Жанр: детектив, ужасы
Продолжительность: 01:17:18
Перевод: Авторский (одноголосый закадровый) Ю. Сербин
Субтитры: русские (borzov)
Оригинальная аудиодорожка: музыкальное сопровождение
Режиссёр: Роберт Вине / Robert Wiene
В ролях: Вернер Краусс, Конрад Фейдт, Фридрих Фехер, Лил Даговер, Ханс Хайнрих фон Твардовски, Рудольф Леттингер, Рудольф Кляйн-Рогге, Ганс Лансер-Рудольф, Генри Питерс-Арнольдс, Людвиг Рекс и др.
Описание: Молодой человек по имени Фрэнсис рассказывает ужасную историю: его друг, он сам и их любимая девушка стали жертвами чудовищного эксперимента, задуманного и осуществленного неким доктором Калигари…
КиноПоиск | IMDb | Sample
Качество: BDRip-AVC (Источник: Das Cabinet des Dr. Caligari (1920) Blu-Ray Disc -BLUEBIRD)
Формат: MKV
Видео: x264, 784x588 (4:3), 17.982 fps, ~2354 kbps avg, 0.284 bit/pixel
Аудио #1: Russian 48.0 KHz, АAC, 3/2 (L,C,R,l,r) + LFE ch, ~192.00 kbps avg |Сербин|
Аудио #2: Score 48.0 KHz, AAC, 2/0 (Front: L R) ch, ~160.00 kbps avg |Donald Sosin|
Формат субтитров: softsub (SRT)
Рип - whip93.
raw [info]: 784x588p 1:1 @ 18000/1001 fps (cfr)
raw [info]: color matrix: bt709
x264 [info]: using SAR=1/1
x264 [info]: using cpu capabilities: MMX2 SSE2Fast SSSE3 SSE4.2 AVX
x264 [info]: profile High, level 4.1
x264 [info]: frame I:521 Avg QP:16.41 size: 66711
x264 [info]: frame P:12533 Avg QP:18.42 size: 32199
x264 [info]: frame B:70351 Avg QP:21.15 size: 13166
x264 [info]: consecutive B-frames: 0.8% 0.2% 0.7% 5.3% 10.6% 35.9% 12.9% 7.1% 5.5% 5.5% 3.3% 2.2% 2.1% 2.9% 1.7% 1.2% 2.1%
x264 [info]: mb I I16..4: 11.7% 68.4% 19.9%
x264 [info]: mb P I16..4: 0.6% 10.1% 1.1% P16..4: 60.9% 11.7% 9.6% 0.6% 0.1% skip: 5.3%
x264 [info]: mb B I16..4: 0.0% 2.0% 0.0% B16..8: 40.8% 7.5% 3.2% direct: 9.7% skip:36.7% L0:48.1% L1:42.2% BI: 9.7%
x264 [info]: 8x8 transform intra:87.7% inter:59.7%
x264 [info]: coded y,uvDC,uvAC intra: 94.7% 61.8% 36.3% inter: 33.6% 16.5% 2.8%
x264 [info]: i16 v,h,dc,p: 37% 10% 29% 24%
x264 [info]: i8 v,h,dc,ddl,ddr,vr,hd,vl,hu: 10% 6% 18% 9% 11% 11% 11% 11% 12%
x264 [info]: i4 v,h,dc,ddl,ddr,vr,hd,vl,hu: 9% 5% 7% 12% 15% 13% 13% 12% 13%
x264 [info]: i8c dc,h,v,p: 44% 22% 21% 13%
x264 [info]: Weighted P-Frames: Y:32.2% UV:17.6%
x264 [info]: ref P L0: 30.9% 5.6% 14.9% 9.3% 7.5% 5.7% 5.1% 3.3% 3.1% 2.5% 2.5% 2.1% 2.1% 1.9% 2.0% 1.5%
x264 [info]: ref B L0: 51.5% 14.7% 8.7% 5.1% 3.9% 3.4% 2.8% 1.9% 1.6% 1.5% 1.3% 1.3% 1.2% 0.8% 0.3%
x264 [info]: ref B L1: 89.1% 10.9%
x264 [info]: kb/s:2353.61
General
Unique ID : 194457959294572995190377671778916926982 (0x924B3D9CBEA89C8D2CEA3C47D0208606)
Complete name : F:\Das.Cabinet.des.Dr.Caligari.1920.BDRip.AAC5.1.x264.-whip93.mkv
Format : Matroska
Format version : Version 4 / Version 2
File size : 1.46 GiB
Duration : 1 h 17 min
Overall bit rate : 2 706 kb/s
Movie name : Кабинет доктора Калигари | Das Cabinet des Dr. Caligari (1920) - Release by whip93
Encoded date : UTC 2018-05-16 11:28:25
Writing application : mkvmerge v22.0.0 ('At The End Of The World') 64-bit
Writing library : libebml v1.3.5 + libmatroska v1.4.8
Video
ID : 1
Format : AVC
Format/Info : Advanced Video Codec
Format profile : [email protected]
Format settings : CABAC / 16 Ref Frames
Format settings, CABAC : Yes
Format settings, ReFrames : 16 frames
Codec ID : V_MPEG4/ISO/AVC
Duration : 1 h 17 min
Bit rate : 2 354 kb/s
Width : 784 pixels
Height : 588 pixels
Display aspect ratio : 4:3
Frame rate mode : Constant
Frame rate : 17.982 (18000/1001) FPS
Color space : YUV
Chroma subsampling : 4:2:0
Bit depth : 8 bits
Scan type : Progressive
Bits/(Pixel*Frame) : 0.284
Stream size : 1.27 GiB (87%)
Title : Encoded by whip93
Writing library : x264 core 155 r2867+82 a249126 t_mod_Custom_2 [[email protected] X86_64]
Encoding settings : cabac=1 / ref=16 / deblock=1:-3:-3 / analyse=0x3:0x133 / me=umh / subme=10 / psy=1 / fade_compensate=0.00 / psy_rd=1.00:0.08 / mixed_ref=0 / me_range=32 / chroma_me=1 / trellis=2 / 8x8dct=1 / cqm=0 / deadzone=21,11 / fast_pskip=1 / chroma_qp_offset=-3 / threads=12 / lookahead_threads=3 / sliced_threads=0 / nr=0 / decimate=1 / interlaced=0 / bluray_compat=0 / constrained_intra=0 / fgo=0 / bframes=16 / b_pyramid=2 / b_adapt=2 / b_bias=0 / direct=1 / weightb=1 / open_gop=0 / weightp=2 / keyint=250 / keyint_min=17 / scenecut=40 / intra_refresh=0 / rc_lookahead=90 / rc=crf / mbtree=0 / crf=20.0000 / qcomp=0.72 / qpmin=0:0:0 / qpmax=69:69:69 / qpstep=4 / vbv_maxrate=62500 / vbv_bufsize=78125 / crf_max=0.0 / nal_hrd=none / filler=0 / ip_ratio=1.40 / pb_ratio=1.30 / aq=3:0.80 / aq-sensitivity=10.00 / aq-factor=1.00:1.00:1.00 / aq2=0 / aq3=0
Language : German
Default : Yes
Forced : No
Color range : Limited
Color primaries : BT.709
Transfer characteristics : BT.709
Matrix coefficients : BT.709
Audio #1
ID : 2
Format : AAC
Format/Info : Advanced Audio Codec
Format profile : HE-AAC / LC
Format settings : Explicit
Codec ID : A_AAC-2
Duration : 1 h 17 min
Bit rate : 192 kb/s
Channel(s) : 6 channels
Channel positions : Front: L C R, Side: L R, LFE
Sampling rate : 48.0 kHz / 24.0 kHz
Frame rate : 23.438 FPS (1024 SPF)
Compression mode : Lossy
Delay relative to video : 31 ms
Stream size : 106 MiB (7%)
Title : AVO (Сербин)
Language : Russian
Default : Yes
Forced : No
Audio #2
ID : 3
Format : AAC
Format/Info : Advanced Audio Codec
Format profile : LC
Codec ID : A_AAC-2
Duration : 1 h 16 min
Bit rate : 160 kb/s
Channel(s) : 2 channels
Channel positions : Front: L R
Sampling rate : 48.0 kHz
Frame rate : 46.875 FPS (1024 SPF)
Compression mode : Lossy
Delay relative to video : 9 ms
Stream size : 87.8 MiB (6%)
Title : Score by Donald Sosin
Language : zxx
Default : No
Forced : No
Text
ID : 4
Format : UTF-8
Codec ID : S_TEXT/UTF8
Codec ID/Info : UTF-8 Plain Text
Duration : 1 h 15 min
Bit rate : 15 b/s
Count of elements : 131
Stream size : 8.41 KiB (0%)
Title : borzov
Language : Russian
Default : No
Forced : No
Menu
00:00:00.000 : de:About Restoration & Opening Credits
00:02:26.688 : de:I Akt
00:13:34.438 : de:II Akt
00:26:28.712 : de:III Akt
00:38:32.268 : de:IV Akt
00:50:53.341 : de:V Akt
01:05:53.866 : de:VI Akt

 
Не забывайте говорить Спасибо. Не уходите с раздачи!   
Торрент: Зарегистрирован [16 май 2018, 18:02] Для скачивания .torrent
необходима регистрация
Или скачать с помощью
MediaGet
Статус:
Проверен
 
.torrent скачан: 0 раз
Хэш: 638440d7f9c3764c22ec9bd32d6e5c63af2d8c6c
Размер: 1.46 ГБ (1 569 136 426 байт)
Стать Автором раздачи
 
 
Раздал: 0 байт
Скачал: 0 байт
Ратио: Inf.
Сообщения: 456704
Зарегистрирован: 17 апр 2014, 13:57


Вернуться в Арт-хаус и авторское кино

Кто сейчас на конференции

Сейчас эту тему просматривают: нет зарегистрированных пользователей и гости: 1

Ресурс не предоставляет электронные версии произведений, а занимается лишь коллекционированием и каталогизацией ссылок, присылаемых и публикуемых на форуме нашими читателями. Если вы являетесь правообладателем какого-либо представленного материала и не желаете чтобы ссылка на него находилась в нашем каталоге, свяжитесь с нами и мы незамедлительно удалим её. Файлы для обмена на трекере предоставлены пользователями сайта, и администрация не несёт ответственности за их содержание. Просьба не заливать файлы, защищенные авторскими правами, а также файлы нелегального содержания!
cron