[ATV 3] Траст / Trust / Сезон 1, Эпизод 1-8 (10) (Дэнни Бойл, Доун Шадфорт, Джонатан ван Тюллекен) [2018, США, драма, криминал, WEB-DL HD (1080p)] MVO (Lostfilm) + MVO (Amedia) + Original + Sub (rus, eng)

 
 Статистика раздачи 
Размер: 19.68 ГБ   |  Зарегистрирован: 16 май 2018, 15:11   |   .torrent скачан: 0 раз
Сидеров: 1  [ 0 байт/сек ]     Личеров: 0  [ 0 байт/сек ]  
  

[ATV 3] Траст / Trust / Сезон 1, Эпизод 1-8 (10) (Дэнни Бойл, Доун Шадфорт, Джонатан ван Тюллекен) [2018, США, драма, криминал, WEB-DL HD (1080p)] MVO (Lostfilm) + MVO (Amedia) + Original + Sub (rus, eng)

Сообщение Nakazhu » 16 май 2018, 15:11

Траст / Trust / Сезон 1


Год выпуска: 2018
Страна: США
Жанр: драма, криминал
Продолжительность серии: 56 мин.
Перевод: Многоголосый закадровый перевод
Оригинальная аудиодорожка: Есть
Cубтитры: Русские, Английские
Режиссёр: Дэнни Бойл, Доун Шадфорт, Джонатан ван Тюллекен
Сценарий: Саймон Бофой
Продюсер: Саймон Бофой, Дэнни Бойл, Тим Брикнелл
Оператор: Кристофер Росс, Моника Ленчевска, Оливер Кертис
Композитор: Джеймс Лэвэлл
Художник: Суттират Энн Ларларб, Патрик Рольф, Алессандро Сантуччи
Монтаж: Эллиот Грэхэм, Мэгс Арнольд, Том Хеммингз
В ролях: Брендан Фрейзер, Харрис Дикинсон, Майкл Эспер, Дональд Сазерленд, Хилари Суэнк, Андреа Арканджели, Лука Маринелли, Сайлас Карсон, Франческо Колелла, Mauro Lamanna
Описание: Сериал-антология от режиссера Дэнни Бойла и сценариста Саймона Бофоя. Оба получили по "Оскару" за работу над "Миллионером из трущоб". Каждый сезон "Траста" посвящен важному событию из истории семьи миллиардера Жана Пола Гетти. Первые десять серий расскажут о похищении его внука Джона Пола Гетти III, произошедшем в Риме в 1973 году. Принципиальный богач отказался платить выкуп за родственника, поручив найти подростка своему подопечному Флетчеру Чейзу. "Траст" реалистичнее, суровее и глубже, чем фильм Ридли Скотта "Все деньги мира" о той же трагедии. Вместо лощеного красавца Марка Уолберга роль Чейза сыграл более похожий на прототипа Брендан Фрейзер, для которого сериал стал возвращением к крупным проектам. В образе Жана Пола Гетти - грандиозный Дональд Сазерленд. В его сноху перевоплотилась дважды лауреат "Оскара" Хилари Суонк.

Качество исходника: WEB-DL 1080p (iTunes US)
Качество: WEB-DL
Тип: 1080p
Контейнер: m4v
Видео: 1916 x 956 at 23.976 fps, MPEG-4 AVC, ~5000 kbps avg
Аудио #1: Lostfilm - Русский - Закадровый перевод: MPEG-4 AAC LC, 2.0, ~ 160 kbps, 48000 Hz
Аудио #2: Lostfilm - Русский - Закадровый перевод: AC-3, 5.1, 384 kbps, 48000 Hz
Аудио #3: Amedia - Русский - Закадровый перевод: MPEG-4 AAC LC, 2.0, ~ 160 kbps, 48000 Hz
Аудио #4: Amedia - Русский - Закадровый перевод: AC-3, 5.1, 384 kbps, 48000 Hz
Аудио #5: Английский (США): MPEG-4 AAC LC, 2.0, ~ 160 kbps, 48000 Hz
Аудио #6: Английский (США): AC-3, 5.1, 384 kbps, 48000 Hz
Субтитры #1: Русские: TX3G
Субтитры #2: Английский - скрытые субтитры: CEA-608
Субтитры #3: Английский - SDH для глухих: TX3G
Траст, Сезон 01

Trust, Season 01
Eng: Trust delves into the trials and triumphs of one of the twentieth century's most iconic dynasties, the Gettys, and explores the complexities at the heart of every family, rich or poor. The series begins in 1973 with the kidnapping of John Paul Getty III.
Eng: As word of his grandson's kidnapping spreads, J. Paul Getty sends his trusted fixer Fletcher Chace to Rome to investigate the mysterious disappearance.
Eng: J. Paul Getty's refusal to pay a single, solitary cent to his grandson's captors has significant, unforeseen consequences in Italy.
Eng: Little Paul gets to know his captors, while Primo opens a channel of communication to Gail.
Eng: Little Paul and Angelo try to agree on their next steps, while Primo and Leonardo mobilize the local community.
Eng: When a gruesome discovery is made, the Getty family fears the worst.
Eng: Old Paul tries to follow through on his plan, Gail grows hopeful, but Big Paul obsesses about the quarrels of the past.
Eng: Leonardo celebrates his son's Confirmation with Primo, Salvatore and the other Calabrians, but unresolved business casts a shadow over the special day.
Код:
Код: Выделить всё
Name: The House of Getty
Artist: Trust
Album Artist: Trust
Album: Trust, Season 1
Media Kind: 10
HD Video:2
Genre: Drama
Release Date: 2018-03-25T07:00:00Z
Track #: 1/10
Disk #: 1/1
TV Show: Trust
TV Episode #: 1
TV Network: FX
TV Episode ID: YSX101
TV Season: 1
Description: Trust delves into the trials and triumphs of one of the twentieth century's most iconic dynasties,
Long Description: Trust delves into the trials and triumphs of one of the twentieth century's most iconic dynasties, the Gettys, and explores the complexities at the heart of every family, rich or poor. The series begins in 1973 with the kidnapping of John Paul Getty III.
Series Description: Inspired by actual events, Trust delves into the trials and triumphs of one of America’s wealthiest and unhappiest families, the Gettys. Equal parts family history, dynastic saga and an examination of the corrosive power of money, Trust explores the complexities at the heart of every family, rich or poor.
Content Rating: 0
Copyright: В© 2018 FX Productions, LLC. All rights reserved.
content ID: 1353430168
artist ID: 1352528033
playlist ID: 1352528034
genre ID: 4001
XID: FoxTV:vendor_id:FOX_TRUST_YSX101_US
iTunes Country: 143441
Sort Name: House of Getty
Sort Artist: Trust
Sort Album: Trust, Season 1

Код:
Код: Выделить всё
General
Complete name                            : 01 The House of Getty (1080p HD).m4v
Format                                   : MPEG-4
Codec ID                                 : M4V  (M4V /mp42/isom)
File size                                : 2.79 GiB
Duration                                 : 1 h 4 min
Overall bit rate mode                    : Variable
Overall bit rate                         : 6 160 kb/s
Collection                               : Trust
Season                                   : 1
Album                                    : Trust, Season 1
Album/Sorted by                          : Trust, Season 1
Album/Performer                          : Trust
Part                                     : 1
Part/Position                            : 1
Part/Total                               : 1
Track name                               : The House of Getty
Track name/Position                      : 1
Track name/Total                         : 10
Performer                                : Trust
Performer/Sorted by                      : Trust
Genre                                    : Drama
ContentType                              : TV Show
Description                              : Trust delves into the trials and triumphs of one of the twentieth century's most iconic dynasties, / Inspired by actual events, Trust delves into the trials and triumphs of one of America's wealthiest and unhappiest families, the Gettys. Equal parts family history, dynastic saga and an examination of the corrosive power of money, Trust explores the complexities at the heart of every family, rich or poor.
Recorded date                            : UTC 2018-03-25 07:00:00
Encoded date                             : UTC 2018-03-23 21:55:22
Tagged date                              : UTC 2018-03-23 21:55:55
Copyright                                : В© 2018 FX Productions, LLC. All rights reserved.
Cover                                    : Yes
Rating                                   : None
AppleStoreCatalogID                      : 1353430168
AlbumTitleID                             : 1352528033
PlayListID                               : 1352528034
GenreID                                  : 4001
Part_ID                                  : YSX101
Title/Sort                               : House of Getty
ContentRating                            : us-tv|TV-MA|600|
LongDescription                          : Trust delves into the trials and triumphs of one of the twentieth century's most iconic dynasties, the Gettys, and explores the complexities at the heart of every family, rich or poor. The series begins in 1973 with the kidnapping of John Paul Getty III.
TVNetworkName                            : FX
Vendor                                   : FoxTV:vendor_id:FOX_TRUST_YSX101_US
Flavour                                  : 18:1080p
AppleStoreCountry                        : United States
Video
ID                                       : 1
Format                                   : AVC
Format/Info                              : Advanced Video Codec
Format profile                           : [email protected]
Format settings                          : CABAC / 4 Ref Frames
Format settings, CABAC                   : Yes
Format settings, RefFrames               : 4 frames
Codec ID                                 : avc1
Codec ID/Info                            : Advanced Video Coding
Duration                                 : 1 h 4 min
Bit rate                                 : 4 943 kb/s
Maximum bit rate                         : 13.0 Mb/s
Width                                    : 1 916 pixels
Height                                   : 956 pixels
Display aspect ratio                     : 2.004
Frame rate mode                          : Constant
Frame rate                               : 23.976 (24000/1001) FPS
Color space                              : YUV
Chroma subsampling                       : 4:2:0
Bit depth                                : 8 bits
Scan type                                : Progressive
Bits/(Pixel*Frame)                       : 0.113
Stream size                              : 2.24 GiB (80%)
Title                                    : Core Media Video
Language                                 : English
Encoded date                             : UTC 2018-03-23 21:55:22
Tagged date                              : UTC 2018-03-23 21:55:55
Color range                              : Limited
Color primaries                          : BT.709
Transfer characteristics                 : BT.709
Matrix coefficients                      : BT.709
Audio #1
ID                                       : 2
Format                                   : AAC
Format/Info                              : Advanced Audio Codec
Format profile                           : LC
Codec ID                                 : mp4a-40-2
Duration                                 : 1 h 4 min
Bit rate mode                            : Variable
Bit rate                                 : 136 kb/s
Maximum bit rate                         : 223 kb/s
Channel(s)                               : 2 channels
Channel positions                        : Front: L R
Sampling rate                            : 48.0 kHz
Frame rate                               : 46.875 FPS (1024 SPF)
Compression mode                         : Lossy
Stream size                              : 62.8 MiB (2%)
Title                                    : Core Media Audio
Language                                 : Russian
Default                                  : Yes
Alternate group                          : 1
Encoded date                             : UTC 2018-03-28 19:21:46
Tagged date                              : UTC 2018-03-28 19:21:46
Fallback From                            : 3
tagc                                     : public.translation.voice-over
Audio #2
ID                                       : 3
Format                                   : AC-3
Format/Info                              : Audio Coding 3
Format settings, Endianness              : Big
Codec ID                                 : ac-3
Duration                                 : 1 h 4 min
Bit rate mode                            : Constant
Bit rate                                 : 384 kb/s
Maximum bit rate                         : 406 kb/s
Channel(s)                               : 6 channels
Channel positions                        : Front: L C R, Side: L R, LFE
Sampling rate                            : 48.0 kHz
Frame rate                               : 31.250 FPS (1536 SPF)
Bit depth                                : 16 bits
Compression mode                         : Lossy
Stream size                              : 178 MiB (6%)
Title                                    : Core Media Audio
Language                                 : Russian
Service kind                             : Complete Main
Default                                  : Inherited From: 2
Alternate group                          : 1
Encoded date                             : UTC 2018-03-28 19:21:46
Tagged date                              : UTC 2018-03-28 19:21:46
Fallback To                              : 2
tagc                                     : public.translation.voice-over
Audio #3
ID                                       : 4
Format                                   : AAC
Format/Info                              : Advanced Audio Codec
Format profile                           : LC
Codec ID                                 : mp4a-40-2
Duration                                 : 1 h 4 min
Bit rate mode                            : Variable
Bit rate                                 : 144 kb/s
Maximum bit rate                         : 216 kb/s
Channel(s)                               : 2 channels
Channel positions                        : Front: L R
Sampling rate                            : 48.0 kHz
Frame rate                               : 46.875 FPS (1024 SPF)
Compression mode                         : Lossy
Stream size                              : 67.4 MiB (2%)
Title                                    : Core Media Audio
Language                                 : Russian
Default                                  : No
Alternate group                          : 1
Encoded date                             : UTC 2018-03-23 21:55:22
Tagged date                              : UTC 2018-03-23 21:55:55
tagc                                     : public.translation.voice-over
Audio #4
ID                                       : 5
Format                                   : AAC
Format/Info                              : Advanced Audio Codec
Format profile                           : LC
Codec ID                                 : mp4a-40-2
Duration                                 : 1 h 4 min
Bit rate mode                            : Variable
Bit rate                                 : 156 kb/s
Maximum bit rate                         : 264 kb/s
Channel(s)                               : 2 channels
Channel positions                        : Front: L R
Sampling rate                            : 48.0 kHz
Frame rate                               : 46.875 FPS (1024 SPF)
Compression mode                         : Lossy
Stream size                              : 72.4 MiB (3%)
Title                                    : Core Media Audio
Language                                 : English
Default                                  : No
Alternate group                          : 1
Encoded date                             : UTC 2018-03-23 21:55:22
Tagged date                              : UTC 2018-03-23 21:55:55
Fallback From                            : 7
Audio #5
ID                                       : 7
Format                                   : AC-3
Format/Info                              : Audio Coding 3
Format settings, Endianness              : Big
Codec ID                                 : ac-3
Duration                                 : 1 h 4 min
Bit rate mode                            : Constant
Bit rate                                 : 384 kb/s
Maximum bit rate                         : 406 kb/s
Channel(s)                               : 6 channels
Channel positions                        : Front: L C R, Side: L R, LFE
Sampling rate                            : 48.0 kHz
Frame rate                               : 31.250 FPS (1536 SPF)
Bit depth                                : 16 bits
Compression mode                         : Lossy
Stream size                              : 178 MiB (6%)
Title                                    : Core Media Audio
Language                                 : English
Service kind                             : Complete Main
Default                                  : No
Alternate group                          : 1
Encoded date                             : UTC 2018-03-23 21:55:22
Tagged date                              : UTC 2018-03-23 21:55:55
Fallback To                              : 5
Text #1
ID                                       : 6-CC1
Format                                   : EIA-608
Muxing mode                              : Final Cut
Codec ID                                 : c608
Duration                                 : 1 h 4 min
Bit rate mode                            : Constant
Stream size                              : 0.00 Byte (0%)
Title                                    : Core Media Closed Caption
Language                                 : English
Forced                                   : No
Encoded date                             : UTC 2018-03-23 21:55:22
Tagged date                              : UTC 2018-03-23 21:55:55
CaptionServiceName                       : CC1
Text #2
ID                                       : 8
Format                                   : Timed Text
Muxing mode                              : sbtl
Codec ID                                 : tx3g
Duration                                 : 1 h 2 min
Bit rate mode                            : Variable
Bit rate                                 : 87 b/s
Stream size                              : 39.8 KiB (0%)
Title                                    : Core Media Subtitle
Language                                 : Russian
Default                                  : No
Forced                                   : No
Alternate group                          : 2
Encoded date                             : UTC 2018-03-23 21:55:22
Tagged date                              : UTC 2018-03-23 21:55:55
Text #3
ID                                       : 9
Format                                   : Timed Text
Muxing mode                              : sbtl
Codec ID                                 : tx3g
Duration                                 : 1 h 4 min
Bit rate mode                            : Variable
Bit rate                                 : 70 b/s
Stream size                              : 33.1 KiB (0%)
Title                                    : Core Media Subtitle
Language                                 : English
Default                                  : No
Forced                                   : No
Alternate group                          : 2
Encoded date                             : UTC 2018-03-23 21:55:22
Tagged date                              : UTC 2018-03-23 21:55:55
tagc                                     : public.accessibility.transcribes-spoken-dialog

[/spoiler][/spoiler][/spoiler][/spoiler]
 
Не забывайте говорить Спасибо. Не уходите с раздачи!   
Торрент: Зарегистрирован [16 май 2018, 15:11] Для скачивания .torrent
необходима регистрация
Или скачать с помощью
MediaGet
Статус:
Проверен
 
.torrent скачан: 0 раз
Хэш: 72a1065a6f676cfdc704bad0e8ef345aae46cade
Размер: 19.68 ГБ (21 130 778 390 байт)
Стать Автором раздачи
 
 
Раздал: 0 байт
Скачал: 0 байт
Ратио: Inf.
Сообщения: 456704
Зарегистрирован: 17 апр 2014, 13:57


Вернуться в Сериалы HD для Apple TV

Кто сейчас на конференции

Сейчас эту тему просматривают: нет зарегистрированных пользователей и гости: 1

Ресурс не предоставляет электронные версии произведений, а занимается лишь коллекционированием и каталогизацией ссылок, присылаемых и публикуемых на форуме нашими читателями. Если вы являетесь правообладателем какого-либо представленного материала и не желаете чтобы ссылка на него находилась в нашем каталоге, свяжитесь с нами и мы незамедлительно удалим её. Файлы для обмена на трекере предоставлены пользователями сайта, и администрация не несёт ответственности за их содержание. Просьба не заливать файлы, защищенные авторскими правами, а также файлы нелегального содержания!
cron