Розенкранц и Гильденстерн мертвы / Rosencrantz & Guildenstern are Dead (Давид Лево / David Leveaux) [2017, Великобритания, драма, комедия, HDTVRip] Old Vic

 
 Статистика раздачи 
Размер: 2.17 ГБ   |  Зарегистрирован: 16 апр 2018, 18:20   |   .torrent скачан: 0 раз
Сидеров: 1  [ 0 байт/сек ]     Личеров: 0  [ 0 байт/сек ]  
  

Розенкранц и Гильденстерн мертвы / Rosencrantz & Guildenstern are Dead (Давид Лево / David Leveaux) [2017, Великобритания, драма, комедия, HDTVRip] Old Vic

Сообщение Nakazhu » 16 апр 2018, 18:20

Розенкранц и Гильденстерн мертвы / Rosencrantz & Guildenstern are Dead
Название театра: Old Vic
Страна
: Великобритания
Жанр: драма, комедия
Год выпуска: 2017
Продолжительность: 02:30:22
Перевод: Субтитры - amrita
Субтитры: русские
Оригинальная аудиодорожка: английский
Режиссёр: Давид Лево / David Leveaux
В ролях: Дэниэл Рэдклифф, Джошуа МакГуайр, Люк Маллинс, Тео Огандип, Хелена Уилсон, Джози Данн, Луиза Биделл, Тим ван Айкен
Описание: Пьеса Тома Стоппарда.
На фоне событий «Гамлета» два незадачливых второстепенных персонажа, Розенкранц и Гильденстерн, оказываются в центре внимания. Молодой комедийный дуэт то присоединяется к действию всемирно известной пьесы Шекспира, то покидает его, и все больше теряет почву под ногами, когда разворачивается их версия истории.

Качество видео: HDTVRip
Формат видео
: AVI
Видео: 704x400 (1.76:1), 25 fps, XviD build 73 ~1678 kbps avg, 0.24 bit/pixel
Аудио: 48 kHz, AC3 Dolby Digital, 3/2 (L,C,R,l,r) + LFE ch, ~384 kbps
901
01:21:29,324 --> 01:21:32,340
Я бы на твоём месте об этом не думал.
Только расстроишься.
902
01:21:34,301 --> 01:21:37,879
Вечность - ужасная вещь.
Когда она кончится-то вообще?
903
01:21:42,865 --> 01:21:44,877
Два ранних христианина встретились как-то в раю.
904
01:21:45,647 --> 01:21:47,757
'Эй, Савл из Тарса!' - вскричал один. -
'Что ты здесь делаешь?'
905
01:21:48,593 --> 01:21:50,632
'Тарса-Шмарса, - ответил второй,
'Я уже Павел вообще-то'.
906
01:21:55,383 --> 01:21:59,794
Им все равно. Нам не на что рассчитывать.
Мы можем молчать, пока не позеленеем...
907
01:22:00,050 --> 01:22:01,465
- ...и все равно они не явятся.
- Или посинеем, или покраснеем.
908
01:22:03,973 --> 01:22:06,774
Христианин, мусульманин и еврей
встретились однажды в закрытой карете.
909
01:22:07,571 --> 01:22:09,389
'Зильберштейн!' вскричал еврей, 'Кто твой друг?'
910
01:22:09,984 --> 01:22:13,014
'Его зовут Абдулла', ответил мусульманин,
'но он мне не друг после обращения в другую веру'
General
Complete name : H:\Rosencrantz.&.Guildenstern.are.Dead.2017.hdtvrip_[2.18]_[teko]\Rosencrantz.&.Guildenstern.are.Dead.2017.hdtvrip_[2.18].avi
Format : AVI
Format/Info : Audio Video Interleave
Format profile : OpenDML
File size : 2.17 GiB
Duration : 2h 30mn
Overall bit rate : 2 069 Kbps
Writing application : VirtualDubMod 1.5.10.3 | www.virtualdub-fr.org || (build 2550/release)
Writing library : VirtualDubMod build 2550/release
Video
ID : 0
Format : MPEG-4 Visual
Format profile : Advanced [email protected]
Format settings, BVOP : 2
Format settings, QPel : No
Format settings, GMC : No warppoints
Format settings, Matrix : Custom
Codec ID : XVID
Codec ID/Hint : XviD
Duration : 2h 30mn
Bit rate : 1 673 Kbps
Width : 704 pixels
Height : 400 pixels
Display aspect ratio : 16:9
Frame rate : 25.000 fps
Color space : YUV
Chroma subsampling : 4:2:0
Bit depth : 8 bits
Scan type : Progressive
Compression mode : Lossy
Bits/(Pixel*Frame) : 0.238
Stream size : 1.76 GiB (81%)
Writing library : XviD 73
Audio
ID : 1
Format : AC-3
Format/Info : Audio Coding 3
Mode extension : CM (complete main)
Format settings, Endianness : Big
Codec ID : 2000
Duration : 2h 30mn
Bit rate mode : Constant
Bit rate : 384 Kbps
Channel(s) : 6 channels
Channel positions : Front: L C R, Side: L R, LFE
Sampling rate : 48.0 KHz
Frame rate : 31.250 fps (1536 spf)
Compression mode : Lossy
Stream size : 413 MiB (19%)
Alignment : Split accross interleaves
Interleave, duration : 40 ms (1.00 video frame)
Interleave, preload duratio : 500 ms
Релиз группы:


 
Не забывайте говорить Спасибо. Не уходите с раздачи!   
Торрент: Зарегистрирован [16 апр 2018, 18:20] Для скачивания .torrent
необходима регистрация
Или скачать с помощью
MediaGet
Статус:
Проверен
 
.torrent скачан: 0 раз
Хэш: 3c21b173162e00325566700eb31d17efd5c6464f
Размер: 2.17 ГБ (2 334 088 922 байт)
Стать Автором раздачи
 
 
Раздал: 0 байт
Скачал: 0 байт
Ратио: Inf.
Сообщения: 439547
Зарегистрирован: 17 апр 2014, 13:57


Вернуться в Театр

Кто сейчас на конференции

Сейчас эту тему просматривают: нет зарегистрированных пользователей и гости: 1

Ресурс не предоставляет электронные версии произведений, а занимается лишь коллекционированием и каталогизацией ссылок, присылаемых и публикуемых на форуме нашими читателями. Если вы являетесь правообладателем какого-либо представленного материала и не желаете чтобы ссылка на него находилась в нашем каталоге, свяжитесь с нами и мы незамедлительно удалим её. Файлы для обмена на трекере предоставлены пользователями сайта, и администрация не несёт ответственности за их содержание. Просьба не заливать файлы, защищенные авторскими правами, а также файлы нелегального содержания!
cron