Отец Браун / Патер Браун / Father Brown / Сезон: 6 / Серии: 1-7 из 10 (Йен Барбер, Доминик Киви, Мэтт Картер) [2017, Великобритания, Детектив, драма, WEBRip] MVO (Back Board Cinema) + Original

 
 Статистика раздачи 
Размер: 5.22 ГБ   |  Зарегистрирован: 13 мар 2018, 21:11   |   .torrent скачан: 0 раз
Сидеров: 1  [ 0 байт/сек ]     Личеров: 0  [ 0 байт/сек ]  
  

Отец Браун / Патер Браун / Father Brown / Сезон: 6 / Серии: 1-7 из 10 (Йен Барбер, Доминик Киви, Мэтт Картер) [2017, Великобритания, Детектив, драма, WEBRip] MVO (Back Board Cinema) + Original

Сообщение Nakazhu » 13 мар 2018, 21:11

Отец Браун / Патер Браун / Father Brown
Год выпуска: 2017
Страна: Великобритания
Жанр: Детектив, драма
Продолжительность: 7 х ~ 00:45:00
Перевод: Профессиональный (многоголосый закадровый) Back Board Cinema
Режиссёр: Йен Барбер, Доминик Киви, Мэтт Картер
В ролях: Марк Уильямс, Сорча Кьюсак, Нэнси Кэрролл, Алекс Прайс, Хьюго Спир, Том Чэмберс, Кит Осборн, Катажина Колечек, Малкольм Сторри, Джон Лайт
Описание: Британский сериал снят по мотивам рассказов классика детективного жанра Гилберта Кейта Честертона. Английская деревушка Кэмблфорд славится не только своими красивыми пейзажами, но и происходящими в ней драматическими историями, которые нередко заканчиваются убийством. И тут, как всегда, на помощь полиции приходит любопытный патер Браун – священник с ничем не примечательной внешностью, но острым, как бритва, умом и поразительным умением разбираться в психологии человека. Он умеет располагать к себе людей и замечает то, что проходит мимо внимания всех прочих. А ещё он умеет анализировать, сопоставлять факты и делать неожиданные выводы...
Доп. информация:
Переведено и озвучено на студии Back Board Cinema по заказу телеканала ТВЦ
Рип, запись и синхронизация звука - rafwan123
Сэмпл: http://multi-up.com/1189981
Качество: WEBRip
Формат: AVI
Видео: XviD, 720x400 (16:9), 25 fps, ~ 2028 Kbps
Аудио: AC3, 48.0 KHz, 2 ch, 192 Kbps | Русский (Back Board Cinema)
Аудио 2: AC3, 48.0 KHz, 2 ch, 192 Kbps | Английский
Субтитры: Отсутствуют
Реклама: Отсутствует
01. Дерево правды
02. Месть галки
03. Кэмблфордский дракон
04. Ангел милосердия
05. Лицо врага
06. Знакомый дьявол
07. Танец смерти
08.
09.
10.
Общее
Полное имя : D:\Father.Brown.s06.MVO\Father.Brown.s06e01.avi
Формат : AVI
Формат/Информация : Audio Video Interleave
Размер файла : 762 Мбайт
Продолжительность : 43 м. 54 с.
Общий поток : 2426 Кбит/сек
Программа кодирования : VirtualDubModRus 1.5.10.2 (build 2542/release)
Библиотека кодирования : VirtualDubMod build 2542/release
Видео
Идентификатор : 0
Формат : MPEG-4 Visual
Профиль формата : Advanced [email protected]
Параметр BVOP формата : 2
Параметр QPel формата : Нет
Параметр GMC формата : Без точки перехода
Параметр матрицы формата : Выборочная
Идентификатор кодека : XVID
Идентификатор кодека/Подсказка : XviD
Продолжительность : 43 м. 54 с.
Битрейт : 2028 Кбит/сек
Ширина : 720 пикселей
Высота : 400 пикселей
Соотношение сторон : 16:9
Частота кадров : 25,000 кадров/сек
Цветовое пространство : YUV
Субдискретизация насыщенности : 4:2:0
Битовая глубина : 8 бит
Тип развёртки : Прогрессивная
Метод сжатия : С потерями
Бит/(Пиксели*Кадры) : 0.282
Размер потока : 637 Мбайт (84%)
Библиотека кодирования : XviD 73
Аудио #1
Идентификатор : 1
Формат : AC-3
Формат/Информация : Audio Coding 3
Расширение режима : CM (complete main)
Параметр Endianness формата : Big
Идентификатор кодека : 2000
Продолжительность : 43 м. 54 с.
Вид битрейта : Постоянный
Битрейт : 192 Кбит/сек
Каналы : 2 канала
Расположение каналов : Front: L R
Частота : 48,0 КГц
Частота кадров : 31,250 кадров/сек (1536 spf)
Битовая глубина : 16 бит
Метод сжатия : С потерями
Размер потока : 60,3 Мбайт (8%)
Выравнивание : Разделение по промежуткам
Продолжительность промежутка : 40 мс. (1,00 видеокадр)
Время предзагрузки промежутка : 500 мс.
Аудио #2
Идентификатор : 2
Формат : AC-3
Формат/Информация : Audio Coding 3
Расширение режима : CM (complete main)
Параметр Endianness формата : Big
Идентификатор кодека : 2000
Продолжительность : 43 м. 54 с.
Вид битрейта : Постоянный
Битрейт : 192 Кбит/сек
Каналы : 2 канала
Расположение каналов : Front: L R
Частота : 48,0 КГц
Частота кадров : 31,250 кадров/сек (1536 spf)
Битовая глубина : 16 бит
Метод сжатия : С потерями
Размер потока : 60,3 Мбайт (8%)
Выравнивание : Разделение по промежуткам
Продолжительность промежутка : 40 мс. (1,00 видеокадр)
Время предзагрузки промежутка : 500 мс.

(1) остановить скачивание,
(2) удалить старый торрент у себя из клиента (старые серии удалять не надо),
(3) скачать новый торрент и запустить его у себя в клиенте вместо старого, при этом указать клиенту путь в старую папку куда и должно происходить скачивание новых серий.
Ваш клиент при этом должен произвести хеширование (проверку) старой папки (если не производит сам - помогите ему сделать это), и будет докачивать только те серии которых у вас ещё нет. Старые серии при этом не удаляются, а продолжают раздаваться!
Eсли вы уже удалили старые серии, то предотвратить повторную закачку старых серий можно, отжав галочку в соответсвующих местах при запуске нового торрента. По возможности, желательно не удалять старые серии как можно дольше чтобы релизёр не столько продолжал раздавать старые серии, а смог сконцентрироваться на новых.
Предыдущие и альтернативные раздачи
 
Не забывайте говорить Спасибо. Не уходите с раздачи!   
Торрент: Зарегистрирован [13 мар 2018, 21:11] Для скачивания .torrent
необходима регистрация
Или скачать с помощью
MediaGet
Статус:
Проверен
 
.torrent скачан: 0 раз
Хэш: 3faab2bd00f8cd50e65d8dcc9c2629f91230eba9
Размер: 5.22 ГБ (5 602 818 048 байт)
Стать Автором раздачи
 
 
Раздал: 0 байт
Скачал: 0 байт
Ратио: Inf.
Сообщения: 470630
Зарегистрирован: 17 апр 2014, 13:57


Вернуться в Зарубежные сериалы

Кто сейчас на конференции

Сейчас эту тему просматривают: нет зарегистрированных пользователей и гости: 1

Ресурс не предоставляет электронные версии произведений, а занимается лишь коллекционированием и каталогизацией ссылок, присылаемых и публикуемых на форуме нашими читателями. Если вы являетесь правообладателем какого-либо представленного материала и не желаете чтобы ссылка на него находилась в нашем каталоге, свяжитесь с нами и мы незамедлительно удалим её. Файлы для обмена на трекере предоставлены пользователями сайта, и администрация не несёт ответственности за их содержание. Просьба не заливать файлы, защищенные авторскими правами, а также файлы нелегального содержания!
cron