Аннигиляция / Annihilation (Алекс Гарленд / Alex Garland) [2018, США, Ужасы, фантастика, фэнтези, триллер, драма, детектив, приключения, WEBRip] MVO + Original (Eng)

 
 Статистика раздачи 
Размер: 1.46 ГБ   |  Зарегистрирован: 13 мар 2018, 21:10   |   .torrent скачан: 0 раз
Сидеров: 1  [ 0 байт/сек ]     Личеров: 0  [ 0 байт/сек ]  
  

Аннигиляция / Annihilation (Алекс Гарленд / Alex Garland) [2018, США, Ужасы, фантастика, фэнтези, триллер, драма, детектив, приключения, WEBRip] MVO + Original (Eng)

Сообщение Nakazhu » 13 мар 2018, 21:10

Аннигиляция / Annihilation

Год выхода: 2018
Выпущено: Великобритания, США / Paramount Pictures
Жанр: ужасы, фантастика, фэнтези, триллер, драма, детектив, приключения
Продолжительность: 01:55:29
Перевод: Любительский (многоголосый, закадровый) @[email protected]
Субтитры: нет
Оригинальная аудиодорожка: английская
Режиссер:
Алекс Гарленд / Alex Garland
В ролях:
Натали Портман, Дженнифер Джейсон Ли, Оскар Айзек, Тесса Томпсон, Джина Родригез, Тува Новотны, Бенедикт Вонг, Дэвид Гяси, Соноя Мидзуно, Джон Шваб
О фильме:
На Землю прилетает маленький метеорит и становится причиной больших перемен. Он врезается в одиноко стоящий маяк, что загадочным образом меняет территорию вокруг.
Профессор биологии Лина уже год страдает от потери мужа-военного. Кейн отправился на очередное секретное задание, но так и не вернулся — жив ли, погиб — женщина не знает, пока однажды дезориентированный и слегка бледный супруг внезапно не появляется на пороге их спальни. Радость длится недолго — у мужчины начинаются судороги и множественные кровотечения, а по дороге в больницу машину скорой помощи тормозят военные. Лина приходит в себя на секретной базе рядом с той самой загадочной зоной, куда уже отправлялись многочисленные экспедиции, но вернулся, оказывается, только один человек — её Кейн.
Релиз групп | | IMDB | КиноПоиск | Сэмпл |
Качество: WEBRip [Annihilation.2018.1080p.NF.WEBRip.DD5.1.x264-NTG]
Формат: AVI
Видео: 720x304 (2.37:1), 23.976 fps, XviD build 65 ~1415 kbps avg, 0.27 bit/pixel
Аудио #1: 48 kHz, AC3 Dolby Digital, 2/0 (L,R) ch, ~192 kbps avg (RUS)
Аудио #2: 48 kHz, AC3 Dolby Digital, 2/0 (L,R) ch, ~192 kbps avg (ENG)
*За работу со звуком большое спасибо Нордер

Код:
Код: Выделить всё
Общее
Полное имя                               : D:\Melkie_prestupleniya_2017_WEBRip_MVO_by_Dalemake.avi
Формат                                   : AVI
Формат/Информация                        : Audio Video Interleave
Размер файла                             : 1,46 Гбайт
Продолжительность                        : 1 ч. 35 м.
Общий поток                              : 2199 Кбит/сек
Программа кодирования                    : VirtualDubMod 1.5.10.3 | www.virtualdub-fr.org || (build 2550/release)
Библиотека кодирования                   : VirtualDubMod build 2550/release
Видео
Идентификатор                            : 0
Формат                                   : MPEG-4 Visual
Профиль формата                          : Advanced [email protected]
Параметр BVOP формата                    : 1
Параметр QPel формата                    : Нет
Параметр GMC формата                     : Без точки перехода
Параметр матрицы формата                 : Выборочная
Идентификатор кодека                     : XVID
Идентификатор кодека/Подсказка           : XviD
Продолжительность                        : 1 ч. 35 м.
Битрейт                                  : 1800 Кбит/сек
Ширина                                   : 720 пикселей
Высота                                   : 304 пикселя
Соотношение сторон                       : 2,35:1
Частота кадров                           : 23,976 кадра/сек
Цветовое пространство                    : YUV
Субдискретизация насыщенности            : 4:2:0
Битовая глубина                          : 8 бит
Тип развёртки                            : Прогрессивная
Метод сжатия                             : С потерями
Бит/(Пиксели*Кадры)                      : 0.343
Размер потока                            : 1,20 Гбайт (82%)
Библиотека кодирования                   : XviD 67
Аудио #1
Идентификатор                            : 1
Формат                                   : AC-3
Формат/Информация                        : Audio Coding 3
Расширение режима                        : CM (complete main)
Параметр Endianness формата              : Big
Идентификатор кодека                     : 2000
Продолжительность                        : 1 ч. 35 м.
Вид битрейта                             : Постоянный
Битрейт                                  : 192 Кбит/сек
Каналы                                   : 2 канала
Расположение каналов                     : Front: L R
Частота                                  : 48,0 КГц
Битовая глубина                          : 16 бит
Метод сжатия                             : С потерями
Размер потока                            : 131 Мбайт (9%)
Выравнивание                             : Разделение по промежуткам
Продолжительность промежутка             : 42  мс. (1,00 видеокадр)
Время предзагрузки промежутка            : 500  мс.
Аудио #2
Идентификатор                            : 2
Формат                                   : AC-3
Формат/Информация                        : Audio Coding 3
Расширение режима                        : CM (complete main)
Параметр Endianness формата              : Big
Идентификатор кодека                     : 2000
Продолжительность                        : 1 ч. 35 м.
Вид битрейта                             : Постоянный
Битрейт                                  : 192 Кбит/сек
Каналы                                   : 2 канала
Расположение каналов                     : Front: L R
Частота                                  : 48,0 КГц
Битовая глубина                          : 16 бит
Метод сжатия                             : С потерями
Размер потока                            : 131 Мбайт (9%)
Выравнивание                             : Разделение по промежуткам
Продолжительность промежутка             : 42  мс. (1,00 видеокадр)
Время предзагрузки промежутка            : 500  мс.


При появлении проф. перевода рип будет перезалит!

 
Не забывайте говорить Спасибо. Не уходите с раздачи!   
Торрент: Зарегистрирован [13 мар 2018, 21:10] Для скачивания .torrent
необходима регистрация
Или скачать с помощью
MediaGet
Статус:
Проверен
 
.torrent скачан: 0 раз
Хэш: ac3ff33f163a597518a694ea57623b3a07958994
Размер: 1.46 ГБ (1 571 467 264 байт)
Стать Автором раздачи
 
 
Раздал: 0 байт
Скачал: 0 байт
Ратио: Inf.
Сообщения: 470630
Зарегистрирован: 17 апр 2014, 13:57


Вернуться в Зарубежное кино

Кто сейчас на конференции

Сейчас эту тему просматривают: нет зарегистрированных пользователей и гости: 1

Ресурс не предоставляет электронные версии произведений, а занимается лишь коллекционированием и каталогизацией ссылок, присылаемых и публикуемых на форуме нашими читателями. Если вы являетесь правообладателем какого-либо представленного материала и не желаете чтобы ссылка на него находилась в нашем каталоге, свяжитесь с нами и мы незамедлительно удалим её. Файлы для обмена на трекере предоставлены пользователями сайта, и администрация не несёт ответственности за их содержание. Просьба не заливать файлы, защищенные авторскими правами, а также файлы нелегального содержания!
cron