2018 ITTF World Tour Platinum Qatar Open / Личные финалы / Eurosport HD [11.03.2018, Настольный теннис, HDTVRip/720p/50fps, MKV/H.264, RU/EN]

 
 Статистика раздачи 
Размер: 915.42 МБ   |  Зарегистрирован: 13 мар 2018, 19:54   |   .torrent скачан: 0 раз
Сидеров: 1  [ 0 байт/сек ]     Личеров: 0  [ 0 байт/сек ]  
  

2018 ITTF World Tour Platinum Qatar Open / Личные финалы / Eurosport HD [11.03.2018, Настольный теннис, HDTVRip/720p/50fps, MKV/H.264, RU/EN]

Сообщение Nakazhu » 13 мар 2018, 19:54

2018 ITTF World Tour Platinum Qatar Open
Год выпуска: 11.03.2018
Вид спорта: Настольный теннис
Комментарий: Профессиональный
Язык комментариев: Русский (Анастасия Кольцова) / Английский
Описание: 2018 ITTF World Tour Platinum Qatar Open. Личные финалы
Доп. информация: Оба матча сокращены
Автор рипа: Настольный Теннисист
Качество: HDTVRip
Формат: MKV
Видео кодек: AVC
Аудио кодек: AC3
Видео: MPEG4 Video (H264) 1280x720 (16:9) 50fps 2322kbps (crf=21, preset - medium)
Аудио: Dolby AC3 48000Hz stereo 192kbps
Код: Выделить всё
General
Unique ID                                : 72643670268817979456167043692930394277 (0x36A6A977CA150554DB0FC4E24415E8A5)
Complete name                            : Y:\НТ\81 - 2018 Qatar Open\03 WS F.mkv
Format                                   : Matroska
Format version                           : Version 4 / Version 2
File size                                : 419 MiB
Duration                                 : 21 min 11 s
Overall bit rate                         : 2 761 kb/s
Writing application                      : XviD4PSP 7.0.447 DAILY
Writing library                          : Lavf57.71.100
ErrorDetectionType                       : Per level 1
ENCODING_INFO                            : MPEGTS > MKV / H264 > X264 CRF 21.0 Medium / MP2 > AC3 CBR 192kbps / MP2 > AC3 CBR 192kbps
Video
ID                                       : 1
Format                                   : AVC
Format/Info                              : Advanced Video Codec
Format profile                           : [email protected]
Format settings, CABAC                   : Yes
Format settings, RefFrames               : 4 frames
Codec ID                                 : V_MPEG4/ISO/AVC
Duration                                 : 21 min 11 s
Bit rate                                 : 2 322 kb/s
Width                                    : 1 280 pixels
Height                                   : 720 pixels
Display aspect ratio                     : 16:9
Frame rate mode                          : Constant
Frame rate                               : 50.000 FPS
Color space                              : YUV
Chroma subsampling                       : 4:2:0
Bit depth                                : 8 bits
Scan type                                : Progressive
Bits/(Pixel*Frame)                       : 0.050
Stream size                              : 352 MiB (84%)
Writing library                          : x264 core 155 r2901M 7d0ff22
Encoding settings                        : cabac=1 / ref=3 / deblock=1:-2:-2 / analyse=0x3:0x113 / me=hex / subme=7 / psy=1 / psy_rd=1.00:0.00 / mixed_ref=1 / me_range=16 / chroma_me=1 / trellis=1 / 8x8dct=1 / cqm=0 / deadzone=21,11 / fast_pskip=1 / chroma_qp_offset=-2 / threads=5 / lookahead_threads=1 / sliced_threads=0 / nr=0 / decimate=1 / interlaced=0 / bluray_compat=0 / constrained_intra=0 / bframes=3 / b_pyramid=2 / b_adapt=1 / b_bias=0 / direct=1 / weightb=1 / open_gop=0 / weightp=2 / keyint=500 / keyint_min=50 / scenecut=40 / intra_refresh=0 / rc_lookahead=40 / rc=crf / mbtree=1 / crf=21.0 / qcomp=0.60 / qpmin=0 / qpmax=69 / qpstep=4 / ip_ratio=1.40 / aq=1:1.00
Default                                  : Yes
Forced                                   : No
Color range                              : Limited
Color primaries                          : BT.709
Transfer characteristics                 : BT.709
Matrix coefficients                      : BT.709
Audio #1
ID                                       : 2
Format                                   : AC-3
Format/Info                              : Audio Coding 3
Format settings, Endianness              : Big
Codec ID                                 : A_AC3
Duration                                 : 21 min 11 s
Bit rate mode                            : Constant
Bit rate                                 : 192 kb/s
Channel(s)                               : 2 channels
Channel positions                        : Front: L R
Sampling rate                            : 48.0 kHz
Frame rate                               : 31.250 FPS (1536 SPF)
Bit depth                                : 16 bits
Compression mode                         : Lossy
Stream size                              : 29.1 MiB (7%)
Language                                 : Russian
Service kind                             : Complete Main
Default                                  : Yes
Forced                                   : No
Audio #2
ID                                       : 3
Format                                   : AC-3
Format/Info                              : Audio Coding 3
Format settings, Endianness              : Big
Codec ID                                 : A_AC3
Duration                                 : 21 min 11 s
Bit rate mode                            : Constant
Bit rate                                 : 192 kb/s
Channel(s)                               : 2 channels
Channel positions                        : Front: L R
Sampling rate                            : 48.0 kHz
Frame rate                               : 31.250 FPS (1536 SPF)
Bit depth                                : 16 bits
Compression mode                         : Lossy
Stream size                              : 29.1 MiB (7%)
Language                                 : English
Service kind                             : Complete Main
Default                                  : No
Forced                                   : No
ЖЕНЩИНЫ. ФИНАЛ

WANG Manyu - LIU Shiwen
МУЖЧИНЫ. ФИНАЛ
FAN Zhendong - CALDERANO Hugo
Общая продолжительность: 00:44:12
ЖЕНЩИНЫ. ФИНАЛ
WANG Manyu - LIU Shiwen - 00:21:11
МУЖЧИНЫ. ФИНАЛ
FAN Zhendong - CALDERANO Hugo - 00:23:01
ЖЕНЩИНЫ. ФИНАЛ

WANG Manyu - LIU Shiwen
(2-4) 11:8, 12:10, 9:11, 6:11, 5:11, 6:11
МУЖЧИНЫ. ФИНАЛ
FAN Zhendong - CALDERANO Hugo
(4-0) 13:11, 12:10, 11:7, 11:7
 
Не забывайте говорить Спасибо. Не уходите с раздачи!   
Торрент: Зарегистрирован [13 мар 2018, 19:54] Для скачивания .torrent
необходима регистрация
Или скачать с помощью
MediaGet
Статус:
Проверен
 
.torrent скачан: 0 раз
Хэш: 9f54d0452d11aa70dbba1afe53e30bc943dc102e
Размер: 915.42 МБ (959 882 328 байт)
Стать Автором раздачи
 
 
Раздал: 0 байт
Скачал: 0 байт
Ратио: Inf.
Сообщения: 470630
Зарегистрирован: 17 апр 2014, 13:57


Вернуться в Бадминтон/Настольный теннис

Кто сейчас на конференции

Сейчас эту тему просматривают: нет зарегистрированных пользователей и гости: 1

Ресурс не предоставляет электронные версии произведений, а занимается лишь коллекционированием и каталогизацией ссылок, присылаемых и публикуемых на форуме нашими читателями. Если вы являетесь правообладателем какого-либо представленного материала и не желаете чтобы ссылка на него находилась в нашем каталоге, свяжитесь с нами и мы незамедлительно удалим её. Файлы для обмена на трекере предоставлены пользователями сайта, и администрация не несёт ответственности за их содержание. Просьба не заливать файлы, защищенные авторскими правами, а также файлы нелегального содержания!
cron