Соцветье нежное любви [2012, торжество Православия, DVDRip]

 
 Статистика раздачи 
Размер: 1.77 ГБ   |  Зарегистрирован: 11 мар 2018, 22:56   |   .torrent скачан: 0 раз
Сидеров: 1  [ 0 байт/сек ]     Личеров: 0  [ 0 байт/сек ]  
  

Соцветье нежное любви [2012, торжество Православия, DVDRip]

Сообщение Nakazhu » 11 мар 2018, 22:57

Соцветье нежное любви
Дата/Год выпуска: 2012
Страна
: Белоруссия
Жанр: торжество Православия
Продолжительность: 02:34:35
Перевод: Не требуется
Русские субтитры: нет
Оригинальная аудиодорожка: русский
Описание: Встреча с протоиереем Артемием Владимировым в Республиканском Дворце культуры и профсоюзов (г. Минск)
О дружбе, о любви, о тайне семейной жизни
- о значимости слова
- о крастоте сотворенного мира
- нравственные основы любви
- воспитание детей - это подвижничество
- юношеский инфантилизм
- как узнать в кавалере будущего супруга
- как почувствовать, что он или она твоя вторая половинка
- как отличить влюбленность от любви
- как не ошибиться в выборе спутника жизни
- советы венчающимся молодоженам
- верующая жена спасает неверующего мужа
- тайна любви
качество: DVDRip
формат: AVI
Видео: MPEG4, XviD, 720x544 (4:3), 25.000 fps, 693 Kbps (0.071 bit/pixel)
Аудио: AC-3, 48.0 KHz, 2 ch, 128 Kbps, CBR
Код: Выделить всё
General
Complete name                            : C:\Users\User\Downloads\Соцветье нежное любви.avi
Format                                   : AVI
Format/Info                              : Audio Video Interleave
Format profile                           : OpenDML
File size                                : 1.77 GiB
Duration                                 : 2h 34mn
Overall bit rate                         : 1 640 Kbps
Encoded by                               : andrejpushkaryov
Writing application                      : Lavf56.40.101
Video
ID                                       : 0
Format                                   : MPEG-4 Visual
Format profile                           : Advanced [email protected]
Format settings, BVOP                    : 1
Format settings, QPel                    : No
Format settings, GMC                     : No warppoints
Format settings, Matrix                  : Default (H.263)
Codec ID                                 : XVID
Codec ID/Hint                            : XviD
Duration                                 : 2h 34mn
Bit rate                                 : 1 500 Kbps
Width                                    : 720 pixels
Height                                   : 544 pixels
Display aspect ratio                     : 4:3
Frame rate                               : 25.000 fps
Color space                              : YUV
Chroma subsampling                       : 4:2:0
Bit depth                                : 8 bits
Scan type                                : Progressive
Compression mode                         : Lossy
Bits/(Pixel*Frame)                       : 0.153
Stream size                              : 1.62 GiB (91%)
Writing library                          : XviD 67
Audio
ID                                       : 1
Format                                   : AC-3
Format/Info                              : Audio Coding 3
Mode extension                           : CM (complete main)
Format settings, Endianness              : Big
Codec ID                                 : 2000
Duration                                 : 2h 34mn
Bit rate mode                            : Constant
Bit rate                                 : 128 Kbps
Channel(s)                               : 2 channels
Channel positions                        : Front: L R
Sampling rate                            : 48.0 KHz
Bit depth                                : 16 bits
Compression mode                         : Lossy
Stream size                              : 142 MiB (8%)
Alignment                                : Aligned on interleaves
Interleave, duration                     : 32 ms (0.80 video frame)
 
Не забывайте говорить Спасибо. Не уходите с раздачи!   
Торрент: Зарегистрирован [11 мар 2018, 22:56] Для скачивания .torrent
необходима регистрация
Или скачать с помощью
MediaGet
Статус:
Проверен
 
.torrent скачан: 0 раз
Хэш: 937ee645a1cc04b550620c8d78f2297fee8a18b5
Размер: 1.77 ГБ (1 901 075 550 байт)
Стать Автором раздачи
 
 
Раздал: 0 байт
Скачал: 0 байт
Ратио: Inf.
Сообщения: 470630
Зарегистрирован: 17 апр 2014, 13:57


Вернуться в Вера и религия (видео)

Кто сейчас на конференции

Сейчас эту тему просматривают: нет зарегистрированных пользователей и гости: 1

Ресурс не предоставляет электронные версии произведений, а занимается лишь коллекционированием и каталогизацией ссылок, присылаемых и публикуемых на форуме нашими читателями. Если вы являетесь правообладателем какого-либо представленного материала и не желаете чтобы ссылка на него находилась в нашем каталоге, свяжитесь с нами и мы незамедлительно удалим её. Файлы для обмена на трекере предоставлены пользователями сайта, и администрация не несёт ответственности за их содержание. Просьба не заливать файлы, защищенные авторскими правами, а также файлы нелегального содержания!
cron