Ясновидение в 3Д / The Second Sight 3D (Порнчай Хонграттанап / Pornchai Hongrattana) [2013, Ужасы, BDrip, 1080p] OverUnder / Вертикальная стереопара

 
 Статистика раздачи 
Размер: 15.02 ГБ   |  Зарегистрирован: 11 мар 2018, 13:54   |   .torrent скачан: 0 раз
Сидеров: 1  [ 0 байт/сек ]     Личеров: 0  [ 0 байт/сек ]  
  

Ясновидение в 3Д / The Second Sight 3D (Порнчай Хонграттанап / Pornchai Hongrattana) [2013, Ужасы, BDrip, 1080p] OverUnder / Вертикальная стереопара

Сообщение Nakazhu » 11 мар 2018, 13:54

Ясновидение / The Second Sight / Chit sam phat 3D
Год выпуска: 2013
Страна: Таиланд (Five Star Production)
Жанр: Ужасы
Продолжительность: 1:29:34
Перевод: Любительский двухголосый закадровый(DeadSno & den904 (релиз-группа "Колобок"))
Русские субтитры: нет
Режиссер: Порнчай Хонграттанап / Pornchai Hongrattana
В ролях: Нават Кулраттанарак, Ейяинг Рхатха Пхонгам, Вирапонд Жираветсунторакул, Анон Саисангчарн, Клаокай Синтеппадон, Пракасит Бовсуван
Описание: Джет с рождения обладал уникальными способностями к ясновидению, и хотя порою это изрядно облегчало ему жизнь, он всегда был настоящим изгоем, поскольку люди считали его мутантом. Когда однажды парень влюбляется в очаровательную Джум, это совершенно меняет его жизнь. Теперь, используя свои паранормальные способности, Джет пытается помочь девушке, оказавшейся в сложной ситуации, однако вскоре это приводит к печальным последствиям…
Сэмпл: http://sendfile.su/1405091
Качество: BDrip
Контейнер: MKV
Формат 3D: OverUnder / Вертикальная стереопара
Порядок ракурсов: левый ракурс первый
Видео кодек: x264
Аудио кодек: AC3
Видео: AVC / [email protected] / 23,976 fps / 1920х2160 / 22,9 Мбит/сек
Аудио: Русский / AC3 / 48 KHz / 5.1 ch / 640 Кбит/сек Кбит/сек(DeadSno & den904) (микс в 5.1 - Ash61)
ВНИМАНИЕ ! На встроенных ТВ-плеерах работать не будет!!!
ТВ Samsung в названии которого есть надпись Ultra HD , и LG Ultra HD 800 серии, LG C6P, Xiaomi Mi TV 2 воспроизводят полные стереопары встроенными плеерами
Железные плееры на которых воспроизводятся полные стереопары:Popcorn C-200 , Dune HD Smart D1 , Dune HD DUO , Dune HD Smart H1 , Dune HD Smart B1 , Dune HD Max , Dune HD TV-303D, Dune HD TV-102, Dune HD Base 3D, Philips HMP7001, Aura HD, MECOOL BB2
Чтобы изображение было на весь экран в плеере выставляем, если рип 1920х1600 - то выставляем 2.35:1 , если 1920х2160 - то выставляем 16:9
Общее
Уникальный идентификатор : 208221217839030681610146933392081250250 (0x9CA5F2A64062D00A95076A3DCA8D67CA)
Полное имя : F:\закачки\The Second Sight.Rip by SeRoGa00.mkv
Формат : Matroska
Версия формата : Version 2
Размер файла : 15,0 Гбайт
Продолжительность : 1 ч. 29 м.
Общий поток : 24,0 Мбит/сек
Дата кодирования : UTC 2018-03-11 09:41:56
Программа кодирования : mkvmerge v3.4.0 ('Rapunzel') сборка от May 15 2010 09:38:20
Библиотека кодирования : libebml v0.8.0 + libmatroska v0.9.0
Видео
Идентификатор : 1
Формат : AVC
Формат/Информация : Advanced Video Codec
Профиль формата : [email protected]
Параметр CABAC формата : Да
Параметр ReFrames формата : 4 кадра
Идентификатор кодека : V_MPEG4/ISO/AVC
Продолжительность : 1 ч. 29 м.
Битрейт : 22,9 Мбит/сек
Ширина : 1920 пикселей
Высота : 2160 пикселей
Соотношение сторон : 0,889
Частота кадров : 23,976 кадра/сек
Цветовое пространство : YUV
Субдискретизация насыщенности : 4:2:0
Битовая глубина : 8 бит
Тип развёртки : Прогрессивная
Бит/(Пиксели*Кадры) : 0.230
Размер потока : 14,3 Гбайт (95%)
Заголовок : Rip by SeRoGa00
Библиотека кодирования : x264 core 155 r2901 7d0ff22
Настройки программы : cabac=1 / ref=4 / deblock=1:-3:-3 / analyse=0x3:0x113 / me=umh / subme=10 / psy=1 / psy_rd=1.00:0.15 / mixed_ref=1 / me_range=24 / chroma_me=1 / trellis=2 / 8x8dct=1 / cqm=0 / deadzone=21,11 / fast_pskip=1 / chroma_qp_offset=-3 / threads=12 / lookahead_threads=6 / sliced_threads=0 / nr=0 / decimate=0 / interlaced=0 / bluray_compat=0 / constrained_intra=0 / bframes=10 / b_pyramid=2 / b_adapt=2 / b_bias=0 / direct=3 / weightb=1 / open_gop=0 / weightp=2 / keyint=250 / keyint_min=23 / scenecut=40 / intra_refresh=0 / rc_lookahead=60 / rc=crf / mbtree=1 / crf=18.0 / qcomp=0.60 / qpmin=10 / qpmax=69 / qpstep=4 / vbv_maxrate=40000 / vbv_bufsize=40000 / crf_max=0.0 / nal_hrd=none / filler=0 / ip_ratio=1.40 / aq=1:1.00
Язык : English
Default : Нет
Forced : Нет
Аудио
Идентификатор : 2
Формат : AC-3
Формат/Информация : Audio Coding 3
Расширение режима : CM (complete main)
Параметр Endianness формата : Big
Идентификатор кодека : A_AC3
Продолжительность : 1 ч. 29 м.
Вид битрейта : Постоянный
Битрейт : 640 Кбит/сек
Каналы : 6 каналов
Расположение каналов : Front: L C R, Side: L R, LFE
Частота : 48,0 КГц
Битовая глубина : 16 бит
Метод сжатия : С потерями
Размер потока : 410 Мбайт (3%)
Язык : Russian
Default : Да
Forced : Нет
Меню
00:00:00.000 : en:00:00:00.000
00:08:38.392 : en:00:08:38.392
00:14:28.450 : en:00:14:28.450
00:20:59.633 : en:00:20:59.633
00:29:30.643 : en:00:29:30.643
00:38:30.599 : en:00:38:30.599
00:45:02.199 : en:00:45:02.199
00:52:12.753 : en:00:52:12.753
00:59:06.833 : en:00:59:06.833
01:08:41.324 : en:01:08:41.324
01:16:45.016 : en:01:16:45.016
01:24:55.172 : en:01:24:55.172

 
Не забывайте говорить Спасибо. Не уходите с раздачи!   
Торрент: Зарегистрирован [11 мар 2018, 13:54] Для скачивания .torrent
необходима регистрация
Или скачать с помощью
MediaGet
Статус:
Проверен
 
.torrent скачан: 0 раз
Хэш: 3bae3fce7ac0dc89a811b32cdff35aa7e4dae9f4
Размер: 15.02 ГБ (16 130 444 204 байт)
Стать Автором раздачи
 
 
Раздал: 0 байт
Скачал: 0 байт
Ратио: Inf.
Сообщения: 470630
Зарегистрирован: 17 апр 2014, 13:57


Вернуться в 3D/Стерео (Кино, Мультфильмы, Видео, TV и Спорт)

Кто сейчас на конференции

Сейчас эту тему просматривают: нет зарегистрированных пользователей и гости: 1

Ресурс не предоставляет электронные версии произведений, а занимается лишь коллекционированием и каталогизацией ссылок, присылаемых и публикуемых на форуме нашими читателями. Если вы являетесь правообладателем какого-либо представленного материала и не желаете чтобы ссылка на него находилась в нашем каталоге, свяжитесь с нами и мы незамедлительно удалим её. Файлы для обмена на трекере предоставлены пользователями сайта, и администрация не несёт ответственности за их содержание. Просьба не заливать файлы, защищенные авторскими правами, а также файлы нелегального содержания!
cron