Cantos (Теодор Курентзис, Семён Александровский) [2016, Опера, SATRip, AVC] Пермский театр оперы и балета

 
 Статистика раздачи 
Размер: 754.47 МБ   |  Зарегистрирован: 08 фев 2018, 22:12   |   .torrent скачан: 0 раз
Сидеров: 1  [ 0 байт/сек ]     Личеров: 0  [ 0 байт/сек ]  
  

Cantos (Теодор Курентзис, Семён Александровский) [2016, Опера, SATRip, AVC] Пермский театр оперы и балета

Сообщение Nakazhu » 08 фев 2018, 22:12

Cantos
Название театра: Пермский театр оперы и балета
Жанр: Опера
Год выпуска: 2016
Продолжительность: 1:15:00
Перевод: Отсутствует
Режиссёр: Теодор Курентзис, Семён Александровский
В ролях: Исполняет хор и оркестр musicAeterna
Описание: «Песни» (так переводится Cantos с греческого) вдохновлены творчеством американского писателя Эзры Паунда (1885—1972), одного из основоположников англоязычной модернистской литературы.
Семпл: http://sendfile.su/1397526
Качество видео: SATRip
Формат видео: MP4
Видео: 1280х720 (16:9), MPEG-4, 25fps, 1278 kbps
Аудио: 44,1 kHz, AAC, 2 ch, 126 kbps
бщее
Полное имя : C:\Users\Сергей\Desktop\Cantos А. Сюмак.mp4
Формат : MPEG-4
Профиль формата : Base Media / Version 2
Идентификатор кодека : mp42 (isom/mp42)
Размер файла : 754 Мбайт
Продолжительность : 1 ч. 15 м.
Режим общего битрейта : Переменный
Общий поток : 1406 Кбит/сек
Дата кодирования : UTC 2018-01-14 14:25:28
Дата пометки : UTC 2018-01-14 14:25:28
gsst : 0
gstd : 4500166
Видео
Идентификатор : 1
Формат : AVC
Формат/Информация : Advanced Video Codec
Профиль формата : [email protected]
Настройки формата : CABAC / 3 Ref Frames
Параметр CABAC формата : Да
Параметр RefFrames формата : 3 кадра
Идентификатор кодека : avc1
Идентификатор кодека/Информация : Advanced Video Coding
Продолжительность : 1 ч. 15 м.
Битрейт : 1278 Кбит/сек
Ширина : 1280 пикселей
Высота : 720 пикселей
Соотношение сторон : 16:9
Режим частоты кадров : Постоянный
Частота кадров : 25,000 кадров/сек
Цветовое пространство : YUV
Субдискретизация насыщенности : 4:2:0
Битовая глубина : 8 бит
Тип развёртки : Прогрессивная
Бит/(Пиксели*Кадры) : 0.055
Размер потока : 685 Мбайт (91%)
Заголовок : ISO Media file produced by Google Inc. Created on: 01/14/2018.
Дата кодирования : UTC 2018-01-14 14:25:28
Дата пометки : UTC 2018-01-14 14:25:28
Цветовой диапазон : Limited
Основные цвета : BT.709
Характеристики трансфера : BT.709
Коэффициенты матрицы : BT.709
Аудио
Идентификатор : 2
Формат : AAC
Формат/Информация : Advanced Audio Codec
Профиль формата : LC
Идентификатор кодека : mp4a-40-2
Продолжительность : 1 ч. 15 м.
Вид битрейта : Переменный
Битрейт : 126 Кбит/сек
Каналы : 2 канала
Расположение каналов : Front: L R
Частота : 44,1 КГц
Частота кадров : 43,066 кадра/сек (1024 SPF)
Метод сжатия : С потерями
Размер потока : 67,4 Мбайт (9%)
Заголовок : ISO Media file produced by Google Inc. Created on: 01/14/2018.
Дата кодирования : UTC 2018-01-14 14:25:28
Дата пометки : UTC 2018-01-14 14:25:28


 
Не забывайте говорить Спасибо. Не уходите с раздачи!   
Торрент: Зарегистрирован [08 фев 2018, 22:12] Для скачивания .torrent
необходима регистрация
Или скачать с помощью
MediaGet
Статус:
Проверен
 
.torrent скачан: 0 раз
Хэш: 566fedf7e6e17767a04b167b32c65288bb4bd6b6
Размер: 754.47 МБ (791 115 703 байт)
Стать Автором раздачи
 
 
Раздал: 0 байт
Скачал: 0 байт
Ратио: Inf.
Сообщения: 439547
Зарегистрирован: 17 апр 2014, 13:57


Вернуться в Театр

Кто сейчас на конференции

Сейчас эту тему просматривают: нет зарегистрированных пользователей и гости: 1

Ресурс не предоставляет электронные версии произведений, а занимается лишь коллекционированием и каталогизацией ссылок, присылаемых и публикуемых на форуме нашими читателями. Если вы являетесь правообладателем какого-либо представленного материала и не желаете чтобы ссылка на него находилась в нашем каталоге, свяжитесь с нами и мы незамедлительно удалим её. Файлы для обмена на трекере предоставлены пользователями сайта, и администрация не несёт ответственности за их содержание. Просьба не заливать файлы, защищенные авторскими правами, а также файлы нелегального содержания!
cron