Сон в летнюю ночь (Роман Мархолиа) [2010, комедия, WEB-DLRip] Государственный Академический ордена "Знак почёта" Русский Драматический театр им А.С. Пушкина Республики Саха (Якутия)

 
 Статистика раздачи 
Размер: 1.44 ГБ   |  Зарегистрирован: 04 фев 2018, 21:42   |   .torrent скачан: 0 раз
Сидеров: 1  [ 0 байт/сек ]     Личеров: 0  [ 0 байт/сек ]  
  

Сон в летнюю ночь (Роман Мархолиа) [2010, комедия, WEB-DLRip] Государственный Академический ордена "Знак почёта" Русский Драматический театр им А.С. Пушкина Республики Саха (Якутия)

Сообщение Nakazhu » 04 фев 2018, 21:42

Сон в летнюю ночь
Название театра: Государственный Академический ордена "Знак почёта" Русский Драматический театр им А.С. Пушкина Республики Саха (Якутия).
Год выпуска: 2010.
Жанр: комедия.
Продолжительность: 01:42:37.
Режиссер: Роман Мархолиа (Москва).
В ролях: артисты театра и дети-инвалиды.
Описание:
Гениальный Шекспир 400 лет назад написал "Сон в летнюю ночь" как будто о нашем времени. Люди в борьбе за выживание в новых жизненных реалиях забыли о главном. А главное – не в распрях и кошмарах, и даже не в деньгах, а в любви и милосердии, не в разъединении людей, но в их объединении.
Дополнительная информация:
Страна: Россия .
Выпущено: ООО Студия "Диалог" по заказу ГАРДТ им. А. С. Пушкина.
Автор: Уильям Шекспир.
Перевод: Татьяна Щепкина-Куперник.
Музыка: Николай Морозов.

Релиз
Рип sharky.

Качество видео:...WEB-DLRip
Формат:.................AVI
Видео:..704x400 (1.76:1), 25 fps, DivX Codec 4.x ~1813 kbps avg, 0.26 bit/pixel
Аудио:..48 kHz, AC3 Dolby Digital, 2/0 (L,R) ch, ~192 kbps
General
Complete name : Son.v.letnyuyu.noch_GARDT.im.A.Pushkina.Respubliki.Saha.2010.DivX.WEB-DLRip.fenixclub.avi
Format : AVI
Format/Info : Audio Video Interleave
File size : 1.44 GiB
Duration : 1h 42mn
Overall bit rate : 2 015 Kbps
Writing application : VirtualDubMod 1.5.10.2 (build 2542/release)
Writing library : VirtualDub build 28292/release
Video
ID : 0
Format : MPEG-4 Visual
Format settings, BVOP : No
Format settings, QPel : No
Format settings, GMC : No warppoints
Format settings, Matrix : Default (H.263)
Codec ID : DX50
Codec ID/Hint : DivX 5
Duration : 1h 42mn
Bit rate : 1 813 Kbps
Width : 704 pixels
Height : 400 pixels
Display aspect ratio : 16:9
Frame rate : 25.000 fps
Color space : YUV
Chroma subsampling : 4:2:0
Bit depth : 8 bits
Scan type : Interlaced
Scan order : Bottom Field First
Compression mode : Lossy
Bits/(Pixel*Frame) : 0.258
Stream size : 1.30 GiB (90%)
Writing library : DivX 3013
Audio
ID : 1
Format : AC-3
Format/Info : Audio Coding 3
Mode extension : CM (complete main)
Format settings, Endianness : Big
Codec ID : 2000
Duration : 1h 42mn
Bit rate mode : Constant
Bit rate : 192 Kbps
Channel(s) : 2 channels
Channel positions : Front: L R
Sampling rate : 48.0 KHz
Frame rate : 31.250 fps (1536 spf)
Compression mode : Lossy
Delay relative to video : 600ms
Stream size : 141 MiB (10%)
Alignment : Split accross interleaves
Interleave, duration : 40 ms (1.00 video frame)
Interleave, preload duratio : 500 ms.

 
Не забывайте говорить Спасибо. Не уходите с раздачи!   
Торрент: Зарегистрирован [04 фев 2018, 21:42] Для скачивания .torrent
необходима регистрация
Или скачать с помощью
MediaGet
Статус:
Проверен
 
.torrent скачан: 0 раз
Хэш: d5d6d58857ba1c7f927faa2cd9820f65f7d2abed
Размер: 1.44 ГБ (1 550 863 252 байт)
Стать Автором раздачи
 
 
Раздал: 0 байт
Скачал: 0 байт
Ратио: Inf.
Сообщения: 439547
Зарегистрирован: 17 апр 2014, 13:57


Вернуться в Театр

Кто сейчас на конференции

Сейчас эту тему просматривают: нет зарегистрированных пользователей и гости: 1

Ресурс не предоставляет электронные версии произведений, а занимается лишь коллекционированием и каталогизацией ссылок, присылаемых и публикуемых на форуме нашими читателями. Если вы являетесь правообладателем какого-либо представленного материала и не желаете чтобы ссылка на него находилась в нашем каталоге, свяжитесь с нами и мы незамедлительно удалим её. Файлы для обмена на трекере предоставлены пользователями сайта, и администрация не несёт ответственности за их содержание. Просьба не заливать файлы, защищенные авторскими правами, а также файлы нелегального содержания!
cron